Top news

Crack traktor dj studio 2 6

Otherwise, you will end up transferring your own tools everywhere you.If you are ready to learn How to become a DJ read here to do it properly.DIY midi Controller Shopping List, first youll need to purchase all of your tools and materials.CD players Thankfully the cd players that


Read more

Dangerous liaisons 2012 soundtrack

Zhu that Beibei should spend some quiet time at Madam Du's estateand secretly arranges for Yifan to be there, to "comfort" Beibei.Jieyu wants revenge on Jin, for publicly dumping her in favor of a schoolgirl.Seeds: 1, leechers: 2, stream: Watch Full Movie movie4u.Suk, belkin battery backup unit rev


Read more

Crack hitman 2 silent assassin no cd

File Archive 4 KB File Archive.4 MB File Archive 391 KB File Archive 68 KB File Archive 163 KB File Archive 21 KB File Archive 23 KB Play Instructions: Install the game - Full Installation.Enter the realm of a retired assassin, forced back into action by treason.More info


Read more

Urn burial robert westall.pdf


urn burial robert westall.pdf

Flac" wave track 02 audio title "Distant Lights" isrc gblzc0600003 REM replaygain_track_gain -5.00 dB REM replaygain_track_peak.977448 index 01 00:00:00 file "03 - securecrt for vandyke u3 v6.1.3 crack tbe by Spaceape (Feat.
While it was quite some time ago that I read this, I recall enjoying how the plot unfolded and progressed.
A few years later, I was happy to learn that he expanded it into this full length novel.
Untitled, bonus Tracks.U Hurt.Flac" wave track 08 audio title "Gutted" isrc gblzc0600009 REM replaygain_track_gain -4.53 dB REM replaygain_track_peak.977478 index 01 00:00:00 file "09 - Forgive.All Tracks Album gain : -5.46 dB Peak :.986542 Statistics Read error : 0 Jitter error (maybe fixed) : 0 Retry sector count : 0 Damaged sector count : 0 Track 01 Filename : /XLD/Burial - Burial (2006) flac 2012 Japan/01 - Untitled.Flac Track gain : -5.41 dB Peak :.977417 CRC32 hash (test run) : A1EE8E1A CRC32 hash : A1EE8E1A CRC32 hash (skip zero) : 25C2692E AccurateRip v1 signature : F18F19B9 AccurateRip v2 signature : 30D20F81 - Accurately ripped (v2, confidence 1/1) Statistics Read error.But instead, Westall does a fabulous job of depicting these aliens as elegant and even frightening.Disable audio cache : OK for the drive with a cache less than 1375KiB.Not finding what you're looking serial driver genius professional edition setup for?South London Boroughs.Feedback, leave feedback about your eBay search experience - opens in new window or tab.Taking place in Northern Engand, its about seventeen year old Ralph Edwards who stumbles across a burial site with a strange capsule.Flac Track gain : -7.15 dB Peak :.977448 CRC32 hash (test run) : 8A521119 CRC32 hash : 8A521119 CRC32 hash (skip zero) : CF26BD91 AccurateRip v1 signature : AccurateRip v2 signature : 3869B32C - Accurately ripped (v2, confidence 1/1) Statistics Read error :.Flac Track gain : -4.90 dB Peak :.986542 CRC32 hash (test run) : 3C624EDB CRC32 hash : 3C624EDB CRC32 hash (skip zero) : 2B1B49E3 AccurateRip v1 signature : EC4311FF AccurateRip v2 signature : 525F9B8A - Accurately ripped (v2, confidence 1/1) Statistics Read error.Flac" wave track 05 audio title "Night Bus" isrc gblzc0600006 REM replaygain_track_gain.47 dB REM replaygain_track_peak.563904 index 01 00:00:00 file "06 - Southern Comfort.Upon opening it he discoveres that it is the body of a alien being and along with him is b I read a short story with this same title and by spss 19 full crack mediafire the same author many years ago.
Spaceape).flac" wave track 03 audio title "Spaceape (Feat.
Flac Pre-gap length : 00:02:00 Track gain :.55 dB Peak :.977264 CRC32 hash (test run) : D751EB3A CRC32 hash : D751EB3A CRC32 hash (skip zero) : D36775D6 AccurateRip v1 signature : 26E6C891 AccurateRip v2 signature : 4046D831 - Accurately ripped (v2, confidence 1/1).
Burial / Burial, used drive : HL-DT-ST dvdrw GX40N (revision RQ00).Flac Track gain : -5.98 dB Peak :.977448 CRC32 hash (test run) : 271958B7 CRC32 hash : 271958B7 CRC32 hash (skip zero) : 2AE17824 AccurateRip v1 signature : 9D2AC997 AccurateRip v2 signature : F2C04C8D - Accurately ripped (v2, confidence 1/1) Statistics Read error.Flac Track gain : -5.00 dB Peak :.977448 CRC32 hash (test run) : A7329E3D CRC32 hash : A7329E3D CRC32 hash (skip zero) : AccurateRip v1 signature : 746843C6 AccurateRip v2 signature : 522C9B71 - Accurately ripped (v2, confidence 1/1) Statistics Read error :.Flac" wave track 04 audio title "Wounder" isrc gblzc0600005 REM replaygain_track_gain -5.69 dB REM replaygain_track_peak.977386 index 01 00:00:00 file "05 - Night Bus.Flac Track gain :.47 dB Peak :.563904 CRC32 hash (test run) : 7C2858AB CRC32 hash : 7C2858AB CRC32 hash (skip zero) : D98addf0 AccurateRip v1 signature : 066662CA AccurateRip v2 signature : B54579D6 - Accurately ripped (v2, confidence 1/1) Statistics Read error.XLD extraction logfile from 12:44:39 0100.Flac Track gain : -3.59 dB Peak :.977448 CRC32 hash (test run) : 6EAF69EF CRC32 hash : 6EAF69EF CRC32 hash (skip zero) : 5CBF9E85 AccurateRip v1 signature : D452AD9D AccurateRip v2 signature : 9000BFD6 - Accurately ripped (v2, confidence 1/1) Statistics Read error.Flac Track gain : -4.53 dB Peak :.977478 CRC32 hash (test run) : CRC32 hash : CRC32 hash (skip zero) : 55FB0FD0 AccurateRip v1 signature : 4124FF9A AccurateRip v2 signature : FA76ddbc - Accurately ripped (v2, confidence 1/1) Statistics Read error : 0 Jitter.I read a short story with this same title and by the same author many years ago.Flac" wave track 12 audio title "Pirates" isrc gblzc0600013 REM replaygain_track_gain -5.98 dB REM replaygain_track_peak.977448 index 01 00:00:00 file "13 - Untitled.I agree with that assessment completely.



Flac" wave track 11 audio title "Prayer" isrc gblzc0600012 REM replaygain_track_gain -3.59 dB REM replaygain_track_peak.977448 index 01 00:00:00 file "12 - Pirates.


Sitemap